X265 HEVC

shikkari shambhu.2018.Malayalam.720p.HDRip.X265.Hevc.10-Bit.Aac.5.1.Esub. H265 HEVC

Recommended Posts

iDLPf1Tl.jpg

Format                                   : Matroska
Format version                           : Version 4 / Version 2
File size                                : 1.37 GiB
Duration                                 : 2 h 24 min
Overall bit rate                         : 1 359 kb/s
Movie name                               : H265 HEVC - www.zippymoviez.date
Encoded date                             : UTC 2018-03-31 13:42:50
Writing application                      : mkvmerge v21.0.0 ('Tardigrades Will Inherit The Earth') 64-bit
Writing library                          : libebml v1.3.5 + libmatroska v1.4.8

Video
ID                                       : 1
Format                                   : HEVC
Format/Info                              : High Efficiency Video Coding
Format profile                           : Main [email protected]@Main
Codec ID                                 : V_MPEGH/ISO/HEVC
Duration                                 : 2 h 24 min
Bit rate                                 : 1 101 kb/s
Width                                    : 1 280 pixels
Height                                   : 540 pixels
Display aspect ratio                     : 2.40:1
Frame rate mode                          : Constant
Frame rate                               : 23.976 (24000/1001) FPS
Color space                              : YUV
Chroma subsampling                       : 4:2:0
Bit depth                                : 10 bits
Bits/(Pixel*Frame)                       : 0.066
Stream size                              : 1.11 GiB (81%)
Title                                    : H265 HEVC - www.zippymoviez.date
Writing library                          : x265 2.6:[Windows][GCC 7.1.0][64 bit] 10bit
Language                                 : Malayalam
Default                                  : Yes
Forced                                   : No
Color range                              : Limited
Color primaries                          : BT.601 NTSC
Transfer characteristics                 : BT.709
Matrix coefficients                      : BT.601

Audio
ID                                       : 2
Format                                   : AAC
Format/Info                              : Advanced Audio Codec
Format profile                           : LC
Codec ID                                 : A_AAC-2
Duration                                 : 2 h 24 min
Bit rate                                 : 256 kb/s
Channel(s)                               : 6 channels
Channel positions                        : Front: L C R, Side: L R, LFE
Sampling rate                            : 48.0 kHz
Frame rate                               : 46.875 FPS (1024 SPF)
Compression mode                         : Lossy
Delay relative to video                  : -21 ms
Stream size                              : 264 MiB (19%)
Title                                    : H265 HEVC - www.zippymoviez.date
Language                                 : Malayalam
Default                                  : Yes
Forced                                   : No

Text
ID                                       : 3
Format                                   : UTF-8
Codec ID                                 : S_TEXT/UTF8
Codec ID/Info                            : UTF-8 Plain Text
Duration                                 : 2 h 20 min
Bit rate                                 : 65 b/s
Count of elements                        : 2249
Stream size                              : 67.2 KiB (0%)
Title                                    : H265 HEVC - www.zippymoviez.date
Language                                 : English
Default                                  : Yes
Forced                                   : No

 

OT1eRuGl.png

6Nlar5il.png

AZEfaptl.png

ooIup2Bl.png

Download Links

Quote

sbQjVpW.gif

bfDMAnK.png

shikkari shambhu.2018.Malayalam.720p.HDRip.X265.Hevc.10-Bit.Aac.5.1.Esub. H265 HEVC.torrent

sbQjVpW.gif

 

8OXTf5D.gif

Share this post


Link to post
Share on other sites

Create an account or sign in to comment

You need to be a member in order to leave a comment

Create an account

Sign up for a new account in our community. It's easy!

Register a new account

Sign in

Already have an account? Sign in here.

Sign In Now