~ Hacker ~

Padmaavat (2018) Orig Auds (Hindi +Tamil + Telugu) HDRip 720p x264 1.7GB AAC 5.1 - ESub

Recommended Posts

Padmaavat (2018) Orig Auds (Hindi +Tamil + Telugu) HDRip 720p x264 1.7GB AAC 5.1 - ESub

f52afbbac89a2f539befb3040163a10b.md.jpg

InFo

Quote

Audio #1
ID                                       : 2
Format                                   : AC-3
Format/Info                              : Audio Coding 3
Codec ID                                 : A_AC3
Duration                                 : 2 h 42 min
Bit rate mode                            : Constant
Bit rate                                 : 160 kb/s
Channel(s)                               : 6 channels
Channel positions                        : Front: L C R, Side: L R, LFE
Sampling rate                            : 44.1 kHz
Frame rate                               : 28.711 FPS (1536 SPF)
Bit depth                                : 16 bits
Compression mode                         : Lossy
Stream size                              : 186 MiB (11%)
Language                                 : Telugu
Service kind                             : Complete Main
Default                                  : Yes
Forced                                   : No

Audio #2
ID                                       : 4
Format                                   : AAC
Format/Info                              : Advanced Audio Codec
Format profile                           : LC
Codec ID                                 : A_AAC-2
Duration                                 : 2 h 42 min
Bit rate                                 : 132 kb/s
Channel(s)                               : 6 channels
Channel positions                        : Front: L R
Sampling rate                            : 44.1 kHz
Frame rate                               : 43.066 FPS (1024 SPF)
Compression mode                         : Lossy
Stream size                              : 153 MiB (9%)
Language                                 : Hindi
Default                                  : No
Forced                                   : No

Audio #3
ID                                       : 5
Format                                   : AAC
Format/Info                              : Advanced Audio Codec
Format profile                           : LC
Codec ID                                 : A_AAC-2
Duration                                 : 2 h 42 min
Bit rate                                 : 132 kb/s
Channel(s)                               : 6 channels
Channel positions                        : Front: L R
Sampling rate                            : 44.1 kHz
Frame rate                               : 43.066 FPS (1024 SPF)
Compression mode                         : Lossy
Stream size                              : 153 MiB (9%)
Language                                 : Tamil
Default                                  : No
Forced                                   : No

Text
ID                                       : 3
Format                                   : UTF-8
Codec ID                                 : S_TEXT/UTF8
Codec ID/Info                            : UTF-8 Plain Text
Duration                                 : 2 h 32 min
Bit rate                                 : 38 b/s
Count of elements                        : 1244
Stream size                              : 43.3 KiB (0%)
Language                                 : English
Default                                  : Yes
Forced                                   : No

Screenshots

499e781b94a8a863947dc31fef6eff99.md.png
9bf44767d05823e07baad70d1103ea55.md.png
85fe3d4d1f119d027fb26a9b423c4837.md.png
ce7ed897e02031b2568e9dac16aa764e.md.png
e3429b2d1f6437e46135a4a346a5aa11.md.png
24a8201944e1d6f311f14d6a339cda58.md.png

Download Links

Quote

~Extreme Seeding Started~
Please click 'Thanks' as a token of appreciation of our effort.

QnC2C27.png

www.zippymoviez.date - Padmaavat (2018) Orig Auds (Hindi +Tamil + Telugu) HDRip 720p x264 1.7GB AAC 5.1 - ESub.mkv.torrent

Share this post


Link to post
Share on other sites

Create an account or sign in to comment

You need to be a member in order to leave a comment

Create an account

Sign up for a new account in our community. It's easy!

Register a new account

Sign in

Already have an account? Sign in here.

Sign In Now